Linkin Park – Hybrid Theory (2000/2012) [Official Digital Download 24bit/48kHz]

Linkin Park – Hybrid Theory (2000)
FLAC (tracks) 24 bit/48 kHz | Time – 37:51 minutes | 507 MB
Official Digital Download – Source: HDTracks.com | Front cover

American rock band Linkin Park took the music scene by storm with their breakthrough debut Hybrid Theory. With millions of copies sold worldwide, the band’s invigorated fusion of rap and metal propelled the album to #2 on the Billboard charts. Included were the hits “One Step Closer,” “Papercut,” “In the End” and the GRAMMY® Award-winning “Crawling.” Listed in the book, 1001 Albums You Must Hear Before You Die, Hybrid Theory was one of Billboard’s “Hot 200 Albums of the Decade.” The recording was one of the most successful debuts in the twenty-first century.

Tracklist:
01 – Papercut
02 – One Step Closer
03 – With You
04 – Points of Authority
05 – Crawling
06 – Runaway
07 – By Myself
08 – In the End
09 – A Place for My Head
10 – Forgotten
11 – Cure for the Itch
12 – Pushing Me Away

Analyzed: Linkin Park / Hybrid Theory
--------------------------------------------------------------------------------
DR Peak RMS Duration Track
--------------------------------------------------------------------------------
DR6 -0.01 dB -6.84 dB 3:04 01-Papercut
DR6 -0.02 dB -6.87 dB 2:36 02-One Step Closer
DR6 -0.02 dB -6.96 dB 3:23 03-With You
DR6 0.00 dB -7.45 dB 3:20 04-Points of Authority
DR6 -0.03 dB -8.30 dB 3:29 05-Crawling
DR6 0.00 dB -7.13 dB 3:04 06-Runaway
DR6 0.00 dB -7.24 dB 3:10 07-By Myself
DR6 -0.03 dB -7.54 dB 3:36 08-In the End
DR5 -0.03 dB -7.40 dB 3:05 09-A Place for My Head
DR6 0.00 dB -6.58 dB 3:14 10-Forgotten
DR6 -0.07 dB -8.91 dB 2:37 11-Cure for the Itch
DR6 -0.05 dB -6.76 dB 3:12 12-Pushing Me Away
--------------------------------------------------------------------------------
Number of tracks: 12
Official DR value: DR6
Samplerate: 48000 Hz
Channels: 2
Bits per sample: 24
Bitrate: 1917 kbps
Codec: FLAC

 

Download:

http://ryushare.com/16d40c988e10/www.hdmusic.me_LinkinPark-HybridTheory20002012-HDTracks24-44.1.rar

or

http://lumfile.com/8daf80mpqemb/www.hdmusic.me_LinkinPark-HybridTheory20002012-HDTracks24-44.1.rar.html

Related Posts Plugin for WordPress, Blogger...
High Speed Download "Linkin Park – Hybrid Theory (2000/2012) [Official Digital Download 24bit/48kHz] " From Usenet,Get Free 300 GB Download Volume Now !