Powerwolf – The Metal Mass: Live (2016) 2BD, Blu-ray 1080p AVC PCM 5.1

Title: Powerwolf – The Metal Mass: Live
Release Date: 2016
Genre: Rock, Hard Rock, Power Metal, Heavy Metal
Artist: Attila Dorn – Vocals; Falk Maria Schlegel – Keyboards; Roel van Helden – Drums; Matthew Greywolf – Guitars; Charles Greywolf – Bass, Guitars

Production/Label: Napalm Records Handels GmbH
Duration: 01:25:37 + 01:18:22 + 01:46:14 + 00:53:35
Quality: Blu-ray
Container: BDMV
Video codec: AVC
Audio codec: PCM
Video: MPEG-4 AVC ~25000 kbps / 1920*1080p / 24 fps / 16:9 / High Profile 4.1
Audio#1 (only BD#1): LPCM 5.1 / 48 kHz / 4608 kbps / 16-bit
Audio#2: LPCM 2.0 / 48 kHz / 1536 kbps / 16-bit
Size: 41.3 GB + 23 GB

Powerwolf’s history of success truely is a metal fairytale: Thanks to lifeblood, passion and talent the band has gathered an enormous amount of followers with until now six albums and uncountable captivating live gigs. Two albums in the top3 of the German album charts, sold-out headliner shows, frenetically celebrated festival gigs all over Europe – there is just one thing missing… Exactly: a dvd / blu-ray which brings the glorious metal mass on your tv.

And of course Powerwolf do it again in style and have assembled a truely opulent package for their loyal fans. “The Metal Mass Live” contains three complete live shows with which you can enjoy the irresistible hooklines and great metal hymns of Powerwolf with live recordings from the Masters Of Rock, the Summer Breeze and the Oberhausen gig from the Wolfsnächte tour. Apart from that all the previous videoclips and two documentaries are included – fans will surely appreciate to witness the hilariously maverick sense of humor of the band members.

Tracklist:
Disc#1
Masters of Rock 2015 Show
1 Sanctified with Dynamite
2 Coleus Sanctus
3 Army Of The Night
4 Amen & Attack 
5 Resurrection by Erection
6 Armata Strigoi
7 Sacred & Wild      
8 All we need is Blood
9 Drumsolo
10 Kreuzfeuer
11 Werewolves of Armenia
12 We drink your blood
13 Lupus Dei
14 Raise Your Fist, Evangelist
15 In The Name Of God (Deus Vult)
Summer Breeze 2015 Show
1 Sanctified with Dynamite
2 Coleus Sanctus
3 Army Of The Night
4 Amen & Attack 
5 Resurrection by Erection
6 Armata Strigoi
7 Kreuzfeuer
8 Werewolves of Armenia
9 In The Name Of God (Deus Vult)
10 Blessed & Possessed
11 All We Need Is Blood
12 Dead Boys Don‘t Cry
13 We drink your blood
14 Lupus Dei
Bonus:
• Documentation: Summer Breeze
• Videoclips:
1 Amen & Attack 
2 Army Of The Night
3 We drink your blood
4 Sanctified with Dynamite
Disc#2
Wolfsnächte-Tour 2015 Show
1 Blessed & Possessed
2 Coleus Sanctus
3 Amen & Attack 
4 Cardinal Sin
5 Army Of The Night
6 Resurrection by Erection
7 Armata Strigoi
8 Drumsolo
9 Dead Boys Don‘t Cry
10 Let There Be Night
11 Werewolves of Armenia
12 In The Name Of God (Deus Vult)
13 We drink your blood
14 Lupus Dei
15 Sanctified with Dynamite
16 Kreuzfeuer
17 All We Need Is Blood
Bonus:
• Documentation: Kreuzweg – Of Wolves And Men

pic pic pic pic
pic pic pic pic
pic pic

pic pic pic pic

DISC INFO:

Disc Title:     BD_1
Disc Size:      44 449 011 109 bytes
Protection:     AACS
BD-Java:        Yes
BDInfo:         0.5.8

PLAYLIST REPORT:

Name:                   01002.MPLS
Length:                 1:25:37.000 (h:m:s.ms)
Size:                   21 171 376 128 bytes
Total Bitrate:          32,97 Mbps

VIDEO:

Codec                   Bitrate             Description
-----                   -------             -----------
MPEG-4 AVC Video        25035 kbps          1080p / 24 fps / 16:9 / High Profile 4.1

AUDIO:

Codec                           Language        Bitrate         Description
-----                           --------        -------         -----------
LPCM Audio                      Undetermined    1536 kbps       2.0 / 48 kHz / 1536 kbps / 16-bit
LPCM Audio                      Undetermined    4608 kbps       5.1 / 48 kHz / 4608 kbps / 16-bit

FILES:

Name            Time In         Length          Size            Total Bitrate
----            -------         ------          ----            -------------
00002.M2TS      0:00:00.000     1:25:36.583     21 171 363 840  32 973
00009.M2TS      1:25:36.583     0:00:00.416     12 288          236
DISC INFO:

Disc Title:     BD_2
Disc Size:      24 797 511 325 bytes
Protection:     AACS
BD-Java:        Yes
BDInfo:         0.5.8

PLAYLIST REPORT:

Name:                   01002.MPLS
Length:                 1:46:14.833 (h:m:s.ms)
Size:                   16 633 497 600 bytes
Total Bitrate:          20,87 Mbps

VIDEO:

Codec                   Bitrate             Description
-----                   -------             -----------
MPEG-4 AVC Video        18152 kbps          1080p / 24 fps / 16:9 / High Profile 4.1

AUDIO:

Codec                           Language        Bitrate         Description
-----                           --------        -------         -----------
LPCM Audio                      Undetermined    1536 kbps       2.0 / 48 kHz / 1536 kbps / 16-bit

FILES:

Name            Time In         Length          Size            Total Bitrate
----            -------         ------          ----            -------------
00002.M2TS      0:00:00.000     1:46:14.416     16 633 485 312  20 875
00004.M2TS      1:46:14.416     0:00:00.416     12 288          236

Disc1:

https://subyshare.com/ufecfvu1zs77/Powerwolf_BD_1.part01.rar.html
https://subyshare.com/e6ptl2804tb4/Powerwolf_BD_1.part02.rar.html
https://subyshare.com/m6n8gx7iocp1/Powerwolf_BD_1.part03.rar.html
https://subyshare.com/to8vl0qqhvf3/Powerwolf_BD_1.part04.rar.html
https://subyshare.com/y1auinwiemto/Powerwolf_BD_1.part05.rar.html
https://subyshare.com/i93wlclfje3q/Powerwolf_BD_1.part06.rar.html
https://subyshare.com/2zk9oytoljnc/Powerwolf_BD_1.part07.rar.html
https://subyshare.com/jis9tusqu2ok/Powerwolf_BD_1.part08.rar.html
https://subyshare.com/mbccn3z4vgtq/Powerwolf_BD_1.part09.rar.html
https://subyshare.com/c9tn8u3hkqgw/Powerwolf_BD_1.part10.rar.html
https://subyshare.com/1j3ef09mst1m/Powerwolf_BD_1.part11.rar.html
https://subyshare.com/r9aaagsm7fee/Powerwolf_BD_1.part12.rar.html
https://subyshare.com/ct39h2yalei0/Powerwolf_BD_1.part13.rar.html
https://subyshare.com/qao0gg3y7tzo/Powerwolf_BD_1.part14.rar.html
https://subyshare.com/s56y6qe71amc/Powerwolf_BD_1.part15.rar.html
https://subyshare.com/x1zsszaz7vm1/Powerwolf_BD_1.part16.rar.html
https://subyshare.com/vkxv9ctiq3ha/Powerwolf_BD_1.part17.rar.html
https://subyshare.com/4m21vto8d4dz/Powerwolf_BD_1.part18.rar.html
https://subyshare.com/op2ve2bcuyby/Powerwolf_BD_1.part19.rar.html
https://subyshare.com/8wz7dky75m0m/Powerwolf_BD_1.part20.rar.html
https://subyshare.com/2t42ub1os0qo/Powerwolf_BD_1.part21.rar.html
https://subyshare.com/lpj6cwn12f6g/Powerwolf_BD_1.part22.rar.html
https://subyshare.com/75b32yaoa85x/Powerwolf_BD_1.part23.rar.html
https://subyshare.com/1u1170a1bhzu/Powerwolf_BD_1.part24.rar.html
https://subyshare.com/r10wxjjdi3db/Powerwolf_BD_1.part25.rar.html
https://subyshare.com/nj74in1cjbk2/Powerwolf_BD_1.part26.rar.html
https://subyshare.com/7szatmpaeoip/Powerwolf_BD_1.part27.rar.html
https://subyshare.com/03n7pamv1hc4/Powerwolf_BD_1.part28.rar.html

Winrar Recovery Volumes:
https://subyshare.com/hdv8vtizuzxi/Powerwolf_BD_1.part01.rev.html
https://subyshare.com/6upkdgn6zm2d/Powerwolf_BD_1.part02.rev.html
https://subyshare.com/wz3t85v0896t/Powerwolf_BD_1.part03.rev.html

Disc2
https://subyshare.com/vu2uuf5hsjd5/Powerwolf_BD_2.part01.rar.html
https://subyshare.com/a47mbmif8cs0/Powerwolf_BD_2.part02.rar.html
https://subyshare.com/2wkew0vmbbsl/Powerwolf_BD_2.part03.rar.html
https://subyshare.com/7qd038kx99eo/Powerwolf_BD_2.part04.rar.html
https://subyshare.com/mubhsgk7scmo/Powerwolf_BD_2.part05.rar.html
https://subyshare.com/1oea9t1cr5m9/Powerwolf_BD_2.part06.rar.html
https://subyshare.com/z5znxmb6eg77/Powerwolf_BD_2.part07.rar.html
https://subyshare.com/ckfv4ngbu1k7/Powerwolf_BD_2.part08.rar.html
https://subyshare.com/ok4gxpw21sii/Powerwolf_BD_2.part09.rar.html
https://subyshare.com/u92l4e20k9nq/Powerwolf_BD_2.part10.rar.html
https://subyshare.com/n8q2letlvz2y/Powerwolf_BD_2.part11.rar.html
https://subyshare.com/6c8dyrxmbiz1/Powerwolf_BD_2.part12.rar.html
https://subyshare.com/slsg6njuudun/Powerwolf_BD_2.part13.rar.html
https://subyshare.com/pav6q594xk8g/Powerwolf_BD_2.part14.rar.html
https://subyshare.com/ea1muve1iwjh/Powerwolf_BD_2.part15.rar.html
https://subyshare.com/8w9ydse43zw8/Powerwolf_BD_2.part16.rar.html

Winrar Recovery Volumes:
https://subyshare.com/c2lyi6o8unnj/Powerwolf_BD_2.part01.rev.html
https://subyshare.com/kk7wrxiispt8/Powerwolf_BD_2.part02.rev.html

Related Posts Plugin for WordPress, Blogger...