Radiohead – 2016-07-08 – NOS Alive! Festival (2016) HDTV 1080i AVC AAC 2.0

Artist: Radiohead
Title: 2016-07-08 – NOS Alive! Festival
Genre: Rock, Alternative/Indie Rock
Release Date: 2016
Quality: HDTV 1080i
Duration: 02:04:41
Video: MPEG4 AVC 15.0 Mbps / 1920*1080i / 16:9 / 50.000 fps / [email protected]
Audio: English AAC 2.0 / 48 kHz / 128 Kbps

http://nosalive.com/festival/radiohead/

Setlist:
1. Burn the Witch
2. Daydreaming
3. Decks Dark
4. Desert Island Disk
5. Ful Stop
6. My Iron Lung
7. Talk Show Host
8. Lotus Flower
9. The Gloaming
10. Exit Music (for a Film)
11. The Numbers
12. Identikit
13. Reckoner
14. Everything in Its Right Place
15. Idioteque
16. Bodysnatchers
17. Street Spirit (Fade Out)

Encore I:
18. Bloom
19. Paranoid Android
20. Nude
21. 2 + 2 = 5
22. There There

Encore II:
23. Creep (Not on setlist, played instead of ‘Million Dollar Question’)
24. Karma Police (with Thom solo acoustic reprise)

pic pic pic pic
pic pic pic pic

General
Complete name                            : O:\Radiohead - 2016-07-08 - NOS Alive - HDTV 1080i\Radiohead - 2016-07-08 - NOS Alive! (HDTV 1080i).mp4
Format                                   : MPEG-4
Format profile                           : Base Media
Codec ID                                 : isom (isom/iso2/avc1/mp41)
File size                                : 13.2 GiB
Duration                                 : 2h 4mn
Overall bit rate mode                    : Variable
Overall bit rate                         : 15.1 Mbps
Description                              : AverMedia_c285_001.001.009
Encoded date                             : UTC 1970-01-01 00:00:00
Tagged date                              : UTC 1970-01-01 00:00:00
Writing application                      : Lavf53.3.0
Comment                                  : Quality_BEST

Video
ID                                       : 1
Format                                   : AVC
Format/Info                              : Advanced Video Codec
Format profile                           : [email protected]
Format settings, CABAC                   : Yes
Format settings, ReFrames                : 2 frames
Codec ID                                 : avc1
Codec ID/Info                            : Advanced Video Coding
Duration                                 : 2h 4mn
Bit rate                                 : 15.0 Mbps
Width                                    : 1 920 pixels
Height                                   : 1 080 pixels
Display aspect ratio                     : 16:9
Frame rate mode                          : Constant
Frame rate                               : 50.000 fps
Color space                              : YUV
Chroma subsampling                       : 4:2:0
Bit depth                                : 8 bits
Scan type                                : Interlaced
Scan type, store method                  : Separated fields
Scan order                               : Top Field First
Bits/(Pixel*Frame)                       : 0.145
Stream size                              : 13.1 GiB (99%)
Encoded date                             : UTC 1970-01-01 00:00:00
Tagged date                              : UTC 1970-01-01 00:00:00

Audio
ID                                       : 2
Format                                   : AAC
Format/Info                              : Advanced Audio Codec
Format profile                           : LC
Codec ID                                 : 40
Duration                                 : 2h 4mn
Bit rate mode                            : Variable
Bit rate                                 : 128 Kbps
Channel(s)                               : 2 channels
Channel positions                        : Front: L R
Sampling rate                            : 48.0 KHz
Frame rate                               : 46.875 fps (1024 spf)
Compression mode                         : Lossy
Stream size                              : 114 MiB (1%)
Default                                  : Yes
Alternate group                          : 1
Encoded date                             : UTC 1970-01-01 00:00:00
Tagged date                              : UTC 1970-01-01 00:00:00

Download:

https://subyshare.com/awetpsk3wvf2/RadioheadNOSAlive.part01.rar.html
https://subyshare.com/kz36osr80d2n/RadioheadNOSAlive.part02.rar.html
https://subyshare.com/hxd6n6x87nha/RadioheadNOSAlive.part03.rar.html
https://subyshare.com/nnzk25jibws2/RadioheadNOSAlive.part04.rar.html
https://subyshare.com/zy0d94u5ggnw/RadioheadNOSAlive.part05.rar.html
https://subyshare.com/dvwm7cws65wt/RadioheadNOSAlive.part06.rar.html
https://subyshare.com/k6sw6mywiyuj/RadioheadNOSAlive.part07.rar.html
https://subyshare.com/7jh4uzlg5brt/RadioheadNOSAlive.part08.rar.html
https://subyshare.com/sffahpvtnbpa/RadioheadNOSAlive.part09.rar.html
https://subyshare.com/mcxitgsayjbq/RadioheadNOSAlive.part10.rar.html

Related Posts Plugin for WordPress, Blogger...