Talk Talk – Spirit Of Eden (1988) [SACD 2003] {PS3 ISO + FLAC}

Talk Talk – Spirit Of Eden (1988) [SACD 2003]
PS3 Rip | ISO | SACD DST64 2.0 > 1-bit/2.8224 MHz | 40:54 minutes | Scans included | 683 MB
or FLAC(converted with foobar2000 to tracks) 24bit/88,2 kHz | Scans included | 760 MB
New Wave / Synthpop / Post Rock

Compare Spirit of Eden with any other previous release in the Talk Talk catalog, and it’s almost impossible to believe it’s the work of the same band — exchanging electronics for live, organic sounds and rejecting structure in favor of mood and atmosphere, the album is an unprecedented breakthrough, a musical and emotional catharsis of immense power. Mark Hollis’ songs exist far outside of the pop idiom, drawing instead on ambient textures, jazz-like arrangements, and avant-garde accents; for all of their intricacy and delicate beauty, compositions like “Inheritance” and “I Believe in You” also possess an elemental strength — Hollis’ oblique lyrics speak to themes of loss and redemption with understated grace, and his hauntingly poignant vocals evoke wrenching spiritual turmoil tempered with unflagging hope. A singular musical experience.

Tracklist:
01 – The Rainbow
02 – Eden
03 – Desire
04 – Inheritance
05 – I Believe in You
06 – Wealth

DSD Digital Remaster 2003.

foobar2000 1.1.14a / Dynamic Range Meter 1.1.1
--------------------------------------------------------------------------------
Analyzed: ? / ?
--------------------------------------------------------------------------------
DR Peak RMS Duration Track
--------------------------------------------------------------------------------
DR13 -3.14 dB -20.66 dB 8:03 01-Talk Talk - Spirit Of Eden
DR12 -2.63 dB -19.85 dB 7:40 02-Talk Talk - Spirit Of Eden
DR11 -2.51 dB -19.16 dB 7:04 03-Talk Talk - Spirit Of Eden
DR12 -3.95 dB -20.33 dB 5:20 04-Talk Talk - Spirit Of Eden
DR12 -3.47 dB -19.39 dB 6:03 05-Talk Talk - Spirit Of Eden
DR15 -6.45 dB -25.44 dB 6:45 06-Talk Talk - Spirit Of Eden
--------------------------------------------------------------------------------
Number of tracks: 6
Official DR value: DR12
Samplerate: 2822400 Hz / PCM Samplerate: 88200 Hz
Channels: 2
Bits per sample: 24
Bitrate: 5645 kbps
Codec: DST64

ISO

http://ryushare.com/321cf7f09de2/www.hdmusic.me_TalkTalk-SpiritOfEden1988SACD2003SACDISO.rar

or

http://lumfile.com/o0g42r53ysm0/www.hdmusic.me_TalkTalk-SpiritOfEden1988SACD2003SACDISO.rar.html

FLAC

http://ryushare.com/273300338337/www.hdmusic.me_TalkTalk-SpiritOfEden1988SACD2003FLAC24-88.2.rar

or

http://lumfile.com/vyr9cn6aujvx/www.hdmusic.me_TalkTalk-SpiritOfEden1988SACD2003FLAC24-88.2.rar.html

Related Posts Plugin for WordPress, Blogger...